Posted : 1 Week ago

  1. American.Utopia.2020.1080p.AMZN.WEB-DL.DDP5.1.H.264-NTG.mkv
  2. General
  3. Unique ID                                : 35291053246660054255076768879865146807 (0x1A8CCF435DA5C79E0D4B6DCBAC86ADB7)
  4. Complete name                            : D:\American.Utopia.2020.1080p.AMZN.WEB-DL.DDP5.1.H.264-NTG.mkv
  5. Format                                   : Matroska
  6. Format version                           : Version 4
  7. File size                                : 7.26 GiB
  8. Duration                                 : 1 h 45 min
  9. Overall bit rate                         : 9 872 kb/s
  10. Encoded date                             : UTC 2020-10-18 08:31:06
  11. Writing application                      : mkvmerge v21.0.0 ('Tardigrades Will Inherit The Earth') 64-bit
  12. Writing library                          : libebml v1.3.5 + libmatroska v1.4.8
  13.  
  14. Video
  15. ID                                       : 1
  16. Format                                   : AVC
  17. Format/Info                              : Advanced Video Codec
  18. Format profile                           : [email protected]
  19. Format settings                          : CABAC / 4 Ref Frames
  20. Format settings, CABAC                   : Yes
  21. Format settings, Reference frames        : 4 frames
  22. Codec ID                                 : V_MPEG4/ISO/AVC
  23. Duration                                 : 1 h 45 min
  24. Bit rate mode                            : Constant
  25. Bit rate                                 : 9 230 kb/s
  26. Nominal bit rate                         : 10 000 kb/s
  27. Width                                    : 1 920 pixels
  28. Height                                   : 1 080 pixels
  29. Display aspect ratio                     : 16:9
  30. Frame rate mode                          : Constant
  31. Frame rate                               : 23.976 (24000/1001) FPS
  32. Color space                              : YUV
  33. Chroma subsampling                       : 4:2:0
  34. Bit depth                                : 8 bits
  35. Scan type                                : Progressive
  36. Bits/(Pixel*Frame)                       : 0.186
  37. Stream size                              : 6.79 GiB (93%)
  38. Default                                  : Yes
  39. Forced                                   : No
  40. Color range                              : Limited
  41. Color primaries                          : BT.709
  42. Transfer characteristics                 : BT.709
  43. Matrix coefficients                      : BT.709
  44.  
  45. Audio
  46. ID                                       : 2
  47. Format                                   : E-AC-3
  48. Format/Info                              : Enhanced AC-3
  49. Commercial name                          : Dolby Digital Plus
  50. Codec ID                                 : A_EAC3
  51. Duration                                 : 1 h 45 min
  52. Bit rate mode                            : Constant
  53. Bit rate                                 : 640 kb/s
  54. Channel(s)                               : 6 channels
  55. Channel layout                           : L R C LFE Ls Rs
  56. Sampling rate                            : 48.0 kHz
  57. Frame rate                               : 31.250 FPS (1536 SPF)
  58. Compression mode                         : Lossy
  59. Delay relative to video                  : 28 ms
  60. Stream size                              : 482 MiB (6%)
  61. Language                                 : English
  62. Service kind                             : Complete Main
  63. Default                                  : Yes
  64. Forced                                   : No
  65.  
  66. Text #1
  67. ID                                       : 3
  68. Format                                   : UTF-8
  69. Codec ID                                 : S_TEXT/UTF8
  70. Codec ID/Info                            : UTF-8 Plain Text
  71. Duration                                 : 1 h 43 min
  72. Bit rate                                 : 62 b/s
  73. Count of elements                        : 1491
  74. Stream size                              : 47.3 KiB (0%)
  75. Language                                 : English
  76. Default                                  : No
  77. Forced                                   : No
  78.  
  79. Text #2
  80. ID                                       : 4
  81. Format                                   : UTF-8
  82. Codec ID                                 : S_TEXT/UTF8
  83. Codec ID/Info                            : UTF-8 Plain Text
  84. Duration                                 : 1 h 44 min
  85. Bit rate                                 : 66 b/s
  86. Count of elements                        : 1641
  87. Stream size                              : 50.6 KiB (0%)
  88. Title                                    : SDH
  89. Language                                 : English
  90. Default                                  : No
  91. Forced                                   : No
  92.  
  93.  
  94.