Posted : 4 Months ago

  1. Ask.No.Questions.2020.1080p.AMZN.WEB-DL.DDP2.0.H.264-NTG.mkv
  2. General
  3. Unique ID                                : 72244141916068106947355873424452360119 (0x3659B733056D14442DA5F49B02A817B7)
  4. Complete name                            : D:\Ask.No.Questions.2020.1080p.AMZN.WEB-DL.DDP2.0.H.264-NTG.mkv
  5. Format                                   : Matroska
  6. Format version                           : Version 4
  7. File size                                : 4.81 GiB
  8. Duration                                 : 1 h 19 min
  9. Overall bit rate                         : 8 647 kb/s
  10. Encoded date                             : UTC 2020-06-30 08:05:56
  11. Writing application                      : mkvmerge v21.0.0 ('Tardigrades Will Inherit The Earth') 64-bit
  12. Writing library                          : libebml v1.3.5 + libmatroska v1.4.8
  13.  
  14. Video
  15. ID                                       : 1
  16. Format                                   : AVC
  17. Format/Info                              : Advanced Video Codec
  18. Format profile                           : [email protected]
  19. Format settings                          : CABAC / 4 Ref Frames
  20. Format settings, CABAC                   : Yes
  21. Format settings, Reference frames        : 4 frames
  22. Codec ID                                 : V_MPEG4/ISO/AVC
  23. Duration                                 : 1 h 19 min
  24. Bit rate mode                            : Constant
  25. Bit rate                                 : 8 421 kb/s
  26. Nominal bit rate                         : 10 000 kb/s
  27. Width                                    : 1 920 pixels
  28. Height                                   : 1 080 pixels
  29. Display aspect ratio                     : 16:9
  30. Frame rate mode                          : Constant
  31. Frame rate                               : 23.976 (24000/1001) FPS
  32. Color space                              : YUV
  33. Chroma subsampling                       : 4:2:0
  34. Bit depth                                : 8 bits
  35. Scan type                                : Progressive
  36. Bits/(Pixel*Frame)                       : 0.169
  37. Stream size                              : 4.69 GiB (97%)
  38. Default                                  : Yes
  39. Forced                                   : No
  40. Color range                              : Limited
  41. Color primaries                          : BT.709
  42. Transfer characteristics                 : BT.709
  43. Matrix coefficients                      : BT.709
  44.  
  45. Audio
  46. ID                                       : 2
  47. Format                                   : E-AC-3
  48. Format/Info                              : Enhanced AC-3
  49. Commercial name                          : Dolby Digital Plus
  50. Codec ID                                 : A_EAC3
  51. Duration                                 : 1 h 19 min
  52. Bit rate mode                            : Constant
  53. Bit rate                                 : 224 kb/s
  54. Channel(s)                               : 2 channels
  55. Channel layout                           : L R
  56. Sampling rate                            : 48.0 kHz
  57. Frame rate                               : 31.250 FPS (1536 SPF)
  58. Compression mode                         : Lossy
  59. Stream size                              : 128 MiB (3%)
  60. Language                                 : English
  61. Service kind                             : Complete Main
  62. Default                                  : Yes
  63. Forced                                   : No
  64.  
  65. Text #1
  66. ID                                       : 3
  67. Format                                   : UTF-8
  68. Codec ID                                 : S_TEXT/UTF8
  69. Codec ID/Info                            : UTF-8 Plain Text
  70. Duration                                 : 1 h 14 min
  71. Bit rate                                 : 80 b/s
  72. Count of elements                        : 1158
  73. Stream size                              : 43.9 KiB (0%)
  74. Language                                 : English
  75. Default                                  : No
  76. Forced                                   : No
  77.  
  78. Text #2
  79. ID                                       : 4
  80. Format                                   : UTF-8
  81. Codec ID                                 : S_TEXT/UTF8
  82. Codec ID/Info                            : UTF-8 Plain Text
  83. Duration                                 : 1 h 15 min
  84. Bit rate                                 : 84 b/s
  85. Count of elements                        : 1272
  86. Stream size                              : 46.5 KiB (0%)
  87. Title                                    : SDH
  88. Language                                 : English
  89. Default                                  : No
  90. Forced                                   : No
  91.  
  92.  
  93.  
  94. ===================================
  95. Ask.No.Questions.2020.720p.AMZN.WEB-DL.DDP2.0.H.264-NTG.mkv
  96. General
  97. Unique ID                                : 101967952457932854472216288015710391832 (0x4CB6503478D2E708B23B572B7FB78E18)
  98. Complete name                            : D:\Ask.No.Questions.2020.720p.AMZN.WEB-DL.DDP2.0.H.264-NTG.mkv
  99. Format                                   : Matroska
  100. Format version                           : Version 4
  101. File size                                : 2.61 GiB
  102. Duration                                 : 1 h 19 min
  103. Overall bit rate                         : 4 699 kb/s
  104. Encoded date                             : UTC 2020-06-30 08:07:42
  105. Writing application                      : mkvmerge v21.0.0 ('Tardigrades Will Inherit The Earth') 64-bit
  106. Writing library                          : libebml v1.3.5 + libmatroska v1.4.8
  107.  
  108. Video
  109. ID                                       : 1
  110. Format                                   : AVC
  111. Format/Info                              : Advanced Video Codec
  112. Format profile                           : [email protected]
  113. Format settings                          : CABAC / 4 Ref Frames
  114. Format settings, CABAC                   : Yes
  115. Format settings, Reference frames        : 4 frames
  116. Codec ID                                 : V_MPEG4/ISO/AVC
  117. Duration                                 : 1 h 19 min
  118. Bit rate mode                            : Constant
  119. Bit rate                                 : 4 473 kb/s
  120. Nominal bit rate                         : 6 000 kb/s
  121. Width                                    : 1 280 pixels
  122. Height                                   : 720 pixels
  123. Display aspect ratio                     : 16:9
  124. Frame rate mode                          : Constant
  125. Frame rate                               : 23.976 (24000/1001) FPS
  126. Color space                              : YUV
  127. Chroma subsampling                       : 4:2:0
  128. Bit depth                                : 8 bits
  129. Scan type                                : Progressive
  130. Bits/(Pixel*Frame)                       : 0.202
  131. Stream size                              : 2.49 GiB (95%)
  132. Default                                  : Yes
  133. Forced                                   : No
  134. Color range                              : Limited
  135. Color primaries                          : BT.709
  136. Transfer characteristics                 : BT.709
  137. Matrix coefficients                      : BT.709
  138.  
  139. Audio
  140. ID                                       : 2
  141. Format                                   : E-AC-3
  142. Format/Info                              : Enhanced AC-3
  143. Commercial name                          : Dolby Digital Plus
  144. Codec ID                                 : A_EAC3
  145. Duration                                 : 1 h 19 min
  146. Bit rate mode                            : Constant
  147. Bit rate                                 : 224 kb/s
  148. Channel(s)                               : 2 channels
  149. Channel layout                           : L R
  150. Sampling rate                            : 48.0 kHz
  151. Frame rate                               : 31.250 FPS (1536 SPF)
  152. Compression mode                         : Lossy
  153. Stream size                              : 128 MiB (5%)
  154. Language                                 : English
  155. Service kind                             : Complete Main
  156. Default                                  : Yes
  157. Forced                                   : No
  158.  
  159. Text #1
  160. ID                                       : 3
  161. Format                                   : UTF-8
  162. Codec ID                                 : S_TEXT/UTF8
  163. Codec ID/Info                            : UTF-8 Plain Text
  164. Duration                                 : 1 h 14 min
  165. Bit rate                                 : 80 b/s
  166. Count of elements                        : 1158
  167. Stream size                              : 43.9 KiB (0%)
  168. Language                                 : English
  169. Default                                  : No
  170. Forced                                   : No
  171.  
  172. Text #2
  173. ID                                       : 4
  174. Format                                   : UTF-8
  175. Codec ID                                 : S_TEXT/UTF8
  176. Codec ID/Info                            : UTF-8 Plain Text
  177. Duration                                 : 1 h 15 min
  178. Bit rate                                 : 84 b/s
  179. Count of elements                        : 1272
  180. Stream size                              : 46.5 KiB (0%)
  181. Title                                    : SDH
  182. Language                                 : English
  183. Default                                  : No
  184. Forced                                   : No
  185.  
  186.  
  187.  
  188. ===================================
  189. Ask.No.Questions.2020.WEBRip.XviD.MP3-XVID.avi
  190. General
  191. Complete name                            : D:\Ask.No.Questions.2020.WEBRip.XviD.MP3-XVID.avi
  192. Format                                   : AVI
  193. Format/Info                              : Audio Video Interleave
  194. File size                                : 1.00 GiB
  195. Duration                                 : 1 h 19 min
  196. Overall bit rate                         : 1 800 kb/s
  197. Movie name                               : RARBG - Ask.No.Questions.2020.WEBRip.XviD.MP3-XVID
  198. Writing application                      : Lavf58.20.100
  199. Comment                                  : RARBG - Ask.No.Questions.2020.WEBRip.XviD.MP3-XVID
  200.  
  201. Video
  202. ID                                       : 0
  203. Format                                   : MPEG-4 Visual
  204. Format profile                           : [email protected]
  205. Format settings, BVOP                    : No
  206. Format settings, QPel                    : No
  207. Format settings, GMC                     : No warppoints
  208. Format settings, Matrix                  : Default (H.263)
  209. Codec ID                                 : XVID
  210. Codec ID/Hint                            : XviD
  211. Duration                                 : 1 h 19 min
  212. Bit rate                                 : 1 595 kb/s
  213. Width                                    : 720 pixels
  214. Height                                   : 400 pixels
  215. Display aspect ratio                     : 16:9
  216. Frame rate                               : 23.976 (24000/1001) FPS
  217. Color space                              : YUV
  218. Chroma subsampling                       : 4:2:0
  219. Bit depth                                : 8 bits
  220. Scan type                                : Progressive
  221. Compression mode                         : Lossy
  222. Bits/(Pixel*Frame)                       : 0.231
  223. Stream size                              : 909 MiB (89%)
  224. Title                                    : RARBG - Ask.No.Questions.2020.WEBRip.XviD.MP3-XVID
  225. Writing library                          : Lavc58.35.100
  226.  
  227. Audio
  228. ID                                       : 1
  229. Format                                   : MPEG Audio
  230. Format version                           : Version 1
  231. Format profile                           : Layer 3
  232. Format settings                          : Joint stereo / MS Stereo
  233. Codec ID                                 : 55
  234. Codec ID/Hint                            : MP3
  235. Duration                                 : 1 h 19 min
  236. Bit rate mode                            : Constant
  237. Bit rate                                 : 192 kb/s
  238. Channel(s)                               : 2 channels
  239. Sampling rate                            : 48.0 kHz
  240. Compression mode                         : Lossy
  241. Stream size                              : 109 MiB (11%)
  242. Alignment                                : Aligned on interleaves
  243. Interleave, duration                     : 24  ms (0.58 video frame)
  244. Interleave, preload duration             : 24  ms
  245. Title                                    : RARBG - Ask.No.Questions.2020.WEBRip.XviD.MP3-XVID
  246. Writing library                          : LAMEªªªÿù‡¥ÚeÁ@"£
  247.  
  248.  
  249.  
  250. ===================================
  251. Ask.No.Questions.2020.WEBRip.x264-ION10.mp4
  252. General
  253. Complete name                            : D:\Ask.No.Questions.2020.WEBRip.x264-ION10.mp4
  254. Format                                   : MPEG-4
  255. Format profile                           : Base Media
  256. Codec ID                                 : isom (isom/iso2/avc1/mp41)
  257. File size                                : 776 MiB
  258. Duration                                 : 1 h 19 min
  259. Overall bit rate                         : 1 361 kb/s
  260. Movie name                               : RARBG - Ask.No.Questions.2020.WEBRip.x264-ION10
  261. Encoded date                             : UTC 2020-06-30 08:53:00
  262. Tagged date                              : UTC 2020-06-30 08:53:00
  263. Writing application                      : Lavf58.20.100
  264. Comment                                  : RARBG - Ask.No.Questions.2020.WEBRip.x264-ION10
  265.  
  266. Video
  267. ID                                       : 1
  268. Format                                   : AVC
  269. Format/Info                              : Advanced Video Codec
  270. Format profile                           : [email protected]
  271. Format settings                          : CABAC / 5 Ref Frames
  272. Format settings, CABAC                   : Yes
  273. Format settings, Reference frames        : 5 frames
  274. Codec ID                                 : avc1
  275. Codec ID/Info                            : Advanced Video Coding
  276. Duration                                 : 1 h 19 min
  277. Bit rate                                 : 1 100 kb/s
  278. Width                                    : 720 pixels
  279. Height                                   : 400 pixels
  280. Display aspect ratio                     : 16:9
  281. Frame rate mode                          : Constant
  282. Frame rate                               : 23.976 (24000/1001) FPS
  283. Color space                              : YUV
  284. Chroma subsampling                       : 4:2:0
  285. Bit depth                                : 8 bits
  286. Scan type                                : Progressive
  287. Bits/(Pixel*Frame)                       : 0.159
  288. Stream size                              : 627 MiB (81%)
  289. Title                                    : RARBG - Ask.No.Questions.2020.WEBRip.x264-ION10
  290. Writing library                          : x264 core 152 r2851M ba24899
  291. Encoding settings                        : cabac=1 / ref=5 / deblock=1:-1:-1 / analyse=0x3:0x113 / me=umh / subme=9 / psy=1 / psy_rd=1.00:0.15 / mixed_ref=1 / me_range=16 / chroma_me=1 / trellis=2 / 8x8dct=1 / cqm=0 / deadzone=21,11 / fast_pskip=1 / chroma_qp_offset=-3 / threads=16 / lookahead_threads=1 / sliced_threads=0 / nr=0 / decimate=1 / interlaced=0 / bluray_compat=0 / constrained_intra=0 / bframes=3 / b_pyramid=2 / b_adapt=2 / b_bias=0 / direct=3 / weightb=1 / open_gop=0 / weightp=2 / keyint=250 / keyint_min=23 / scenecut=40 / intra_refresh=0 / rc_lookahead=50 / rc=2pass / mbtree=1 / bitrate=1100 / ratetol=1.0 / qcomp=0.60 / qpmin=0 / qpmax=69 / qpstep=4 / cplxblur=20.0 / qblur=0.5 / ip_ratio=1.40 / aq=1:1.00
  292. Encoded date                             : UTC 2020-06-30 08:53:00
  293. Tagged date                              : UTC 2020-06-30 08:53:00
  294. Codec configuration box                  : avcC
  295.  
  296. Audio
  297. ID                                       : 2
  298. Format                                   : AAC LC
  299. Format/Info                              : Advanced Audio Codec Low Complexity
  300. Codec ID                                 : mp4a-40-2
  301. Duration                                 : 1 h 19 min
  302. Duration_LastFrame                       : -11 ms
  303. Bit rate mode                            : Constant
  304. Bit rate                                 : 256 kb/s
  305. Channel(s)                               : 2 channels
  306. Channel layout                           : L R
  307. Sampling rate                            : 48.0 kHz
  308. Frame rate                               : 46.875 FPS (1024 SPF)
  309. Compression mode                         : Lossy
  310. Stream size                              : 146 MiB (19%)
  311. Title                                    : RARBG - Ask.No.Questions.2020.WEBRip.x264-ION10
  312. Language                                 : English
  313. Default                                  : Yes
  314. Alternate group                          : 1
  315. Encoded date                             : UTC 2020-06-30 08:53:00
  316. Tagged date                              : UTC 2020-06-30 08:53:00
  317.  
  318.  
  319.