Posted : 4 Months ago

  1. Teeth.2007.WEBRip.x264-ION10.mp4
  2. General
  3. Complete name                            : D:\Teeth.2007.WEBRip.x264-ION10.mp4
  4. Format                                   : MPEG-4
  5. Format profile                           : Base Media
  6. Codec ID                                 : isom (isom/iso2/avc1/mp41)
  7. File size                                : 913 MiB
  8. Duration                                 : 1 h 33 min
  9. Overall bit rate                         : 1 361 kb/s
  10. Movie name                               : RARBG - Teeth.2007.WEBRip.x264-ION10
  11. Encoded date                             : UTC 2019-10-30 10:34:09
  12. Tagged date                              : UTC 2019-10-30 10:34:09
  13. Writing application                      : Lavf58.20.100
  14. Comment                                  : RARBG - Teeth.2007.WEBRip.x264-ION10
  15.  
  16. Video
  17. ID                                       : 1
  18. Format                                   : AVC
  19. Format/Info                              : Advanced Video Codec
  20. Format profile                           : [email protected].1
  21. Format settings                          : CABAC / 5 Ref Frames
  22. Format settings, CABAC                   : Yes
  23. Format settings, Reference frames        : 5 frames
  24. Codec ID                                 : avc1
  25. Codec ID/Info                            : Advanced Video Coding
  26. Duration                                 : 1 h 33 min
  27. Bit rate                                 : 1 100 kb/s
  28. Width                                    : 720 pixels
  29. Height                                   : 400 pixels
  30. Display aspect ratio                     : 16:9
  31. Frame rate mode                          : Constant
  32. Frame rate                               : 23.976 (24000/1001) FPS
  33. Color space                              : YUV
  34. Chroma subsampling                       : 4:2:0
  35. Bit depth                                : 8 bits
  36. Scan type                                : Progressive
  37. Bits/(Pixel*Frame)                       : 0.159
  38. Stream size                              : 738 MiB (81%)
  39. Title                                    : RARBG - Teeth.2007.WEBRip.x264-ION10
  40. Writing library                          : x264 core 152 r2851M ba24899
  41. Encoding settings                        : cabac=1 / ref=5 / deblock=1:-1:-1 / analyse=0x3:0x113 / me=umh / subme=9 / psy=1 / psy_rd=1.00:0.15 / mixed_ref=1 / me_range=16 / chroma_me=1 / trellis=2 / 8x8dct=1 / cqm=0 / deadzone=21,11 / fast_pskip=1 / chroma_qp_offset=-3 / threads=16 / lookahead_threads=1 / sliced_threads=0 / nr=0 / decimate=1 / interlaced=0 / bluray_compat=0 / constrained_intra=0 / bframes=3 / b_pyramid=2 / b_adapt=2 / b_bias=0 / direct=3 / weightb=1 / open_gop=0 / weightp=2 / keyint=250 / keyint_min=23 / scenecut=40 / intra_refresh=0 / rc_lookahead=50 / rc=2pass / mbtree=1 / bitrate=1100 / ratetol=1.0 / qcomp=0.60 / qpmin=0 / qpmax=69 / qpstep=4 / cplxblur=20.0 / qblur=0.5 / ip_ratio=1.40 / aq=1:1.00
  42. Encoded date                             : UTC 2019-10-30 10:34:09
  43. Tagged date                              : UTC 2019-10-30 10:34:09
  44. Codec configuration box                  : avcC
  45.  
  46. Audio
  47. ID                                       : 2
  48. Format                                   : AAC LC
  49. Format/Info                              : Advanced Audio Codec Low Complexity
  50. Codec ID                                 : mp4a-40-2
  51. Duration                                 : 1 h 33 min
  52. Duration_LastFrame                       : -11 ms
  53. Bit rate mode                            : Constant
  54. Bit rate                                 : 256 kb/s
  55. Channel(s)                               : 2 channels
  56. Channel layout                           : L R
  57. Sampling rate                            : 48.0 kHz
  58. Frame rate                               : 46.875 FPS (1024 SPF)
  59. Compression mode                         : Lossy
  60. Stream size                              : 172 MiB (19%)
  61. Title                                    : RARBG - Teeth.2007.WEBRip.x264-ION10
  62. Language                                 : English
  63. Default                                  : Yes
  64. Alternate group                          : 1
  65. Encoded date                             : UTC 2019-10-30 10:34:09
  66. Tagged date                              : UTC 2019-10-30 10:34:09
  67.  
  68.  
  69.  
  70. ===================================
  71. Teeth.2007.1080p.AMZN.WEB-DL.DD5.1.H.264-alfaHD.mkv
  72. General
  73. Unique ID                                : 336805473163094328479887298875054157412 (0xFD625FE715D4B0ADDF2D5896B850EE64)
  74. Complete name                            : D:\Teeth.2007.1080p.AMZN.WEB-DL.DD5.1.H.264-alfaHD.mkv
  75. Format                                   : Matroska
  76. Format version                           : Version 4
  77. File size                                : 9.26 GiB
  78. Duration                                 : 1 h 33 min
  79. Overall bit rate mode                    : Variable
  80. Overall bit rate                         : 14.1 Mb/s
  81. Encoded date                             : UTC 2018-02-03 21:28:44
  82. Writing application                      : mkvmerge v20.0.0 ('I Am The Sun') 64-bit
  83. Writing library                          : libebml v1.3.5 + libmatroska v1.4.8
  84.  
  85. Video
  86. ID                                       : 1
  87. Format                                   : AVC
  88. Format/Info                              : Advanced Video Codec
  89. Format profile                           : [email protected]
  90. Format settings                          : CABAC / 4 Ref Frames
  91. Format settings, CABAC                   : Yes
  92. Format settings, Reference frames        : 4 frames
  93. Codec ID                                 : V_MPEG4/ISO/AVC
  94. Duration                                 : 1 h 33 min
  95. Bit rate mode                            : Variable
  96. Bit rate                                 : 13.5 Mb/s
  97. Maximum bit rate                         : 15.0 Mb/s
  98. Width                                    : 1 920 pixels
  99. Height                                   : 1 080 pixels
  100. Display aspect ratio                     : 16:9
  101. Frame rate mode                          : Constant
  102. Frame rate                               : 23.976 (24000/1001) FPS
  103. Color space                              : YUV
  104. Chroma subsampling                       : 4:2:0
  105. Bit depth                                : 8 bits
  106. Scan type                                : Progressive
  107. Bits/(Pixel*Frame)                       : 0.271
  108. Stream size                              : 8.84 GiB (95%)
  109. Default                                  : Yes
  110. Forced                                   : No
  111. Color range                              : Limited
  112. Color primaries                          : BT.709
  113. Transfer characteristics                 : BT.709
  114. Matrix coefficients                      : BT.709
  115.  
  116. Audio
  117. ID                                       : 2
  118. Format                                   : E-AC-3
  119. Format/Info                              : Enhanced AC-3
  120. Commercial name                          : Dolby Digital Plus
  121. Codec ID                                 : A_EAC3
  122. Duration                                 : 1 h 33 min
  123. Bit rate mode                            : Constant
  124. Bit rate                                 : 640 kb/s
  125. Channel(s)                               : 6 channels
  126. Channel layout                           : L R C LFE Ls Rs
  127. Sampling rate                            : 48.0 kHz
  128. Frame rate                               : 31.250 FPS (1536 SPF)
  129. Compression mode                         : Lossy
  130. Stream size                              : 429 MiB (5%)
  131. Language                                 : English
  132. Service kind                             : Complete Main
  133. Default                                  : Yes
  134. Forced                                   : No
  135.  
  136. Text #1
  137. ID                                       : 3
  138. Format                                   : UTF-8
  139. Codec ID                                 : S_TEXT/UTF8
  140. Codec ID/Info                            : UTF-8 Plain Text
  141. Duration                                 : 1 h 29 min
  142. Bit rate                                 : 28 b/s
  143. Count of elements                        : 815
  144. Stream size                              : 18.4 KiB (0%)
  145. Language                                 : English
  146. Default                                  : No
  147. Forced                                   : No
  148.  
  149. Text #2
  150. ID                                       : 4
  151. Format                                   : UTF-8
  152. Codec ID                                 : S_TEXT/UTF8
  153. Codec ID/Info                            : UTF-8 Plain Text
  154. Duration                                 : 1 h 29 min
  155. Bit rate                                 : 31 b/s
  156. Count of elements                        : 943
  157. Stream size                              : 20.3 KiB (0%)
  158. Title                                    : SDH
  159. Language                                 : English
  160. Default                                  : No
  161. Forced                                   : No
  162.  
  163.  
  164.  
  165. ===================================
  166. Teeth.2007.720p.WEBRip.x264.AAC-YTS.mp4
  167. General
  168. Complete name                            : D:\Teeth.2007.720p.WEBRip.x264.AAC-YTS.mp4
  169. Format                                   : MPEG-4
  170. Format profile                           : Base Media
  171. Codec ID                                 : isom (isom/iso2/avc1/mp41)
  172. File size                                : 861 MiB
  173. Duration                                 : 1 h 33 min
  174. Overall bit rate                         : 1 283 kb/s
  175. Writing application                      : Lavf58.39.101
  176.  
  177. Video
  178. ID                                       : 1
  179. Format                                   : AVC
  180. Format/Info                              : Advanced Video Codec
  181. Format profile                           : [email protected]
  182. Format settings                          : CABAC / 4 Ref Frames
  183. Format settings, CABAC                   : Yes
  184. Format settings, Reference frames        : 4 frames
  185. Codec ID                                 : avc1
  186. Codec ID/Info                            : Advanced Video Coding
  187. Duration                                 : 1 h 33 min
  188. Bit rate                                 : 1 150 kb/s
  189. Width                                    : 1 280 pixels
  190. Height                                   : 714 pixels
  191. Display aspect ratio                     : 16:9
  192. Frame rate mode                          : Constant
  193. Frame rate                               : 23.976 (24000/1001) FPS
  194. Color space                              : YUV
  195. Chroma subsampling                       : 4:2:0
  196. Bit depth                                : 8 bits
  197. Scan type                                : Progressive
  198. Bits/(Pixel*Frame)                       : 0.052
  199. Stream size                              : 771 MiB (90%)
  200. Writing library                          : x264 core 159
  201. Encoding settings                        : cabac=1 / ref=4 / deblock=1:-1:-1 / analyse=0x3:0x133 / me=umh / subme=9 / psy=1 / psy_rd=1.00:0.15 / mixed_ref=1 / me_range=24 / chroma_me=1 / trellis=2 / 8x8dct=1 / cqm=0 / deadzone=21,11 / fast_pskip=0 / chroma_qp_offset=-3 / threads=18 / lookahead_threads=1 / sliced_threads=0 / nr=0 / decimate=1 / interlaced=0 / bluray_compat=0 / constrained_intra=0 / bframes=3 / b_pyramid=2 / b_adapt=2 / b_bias=0 / direct=3 / weightb=1 / open_gop=0 / weightp=2 / keyint=250 / keyint_min=23 / scenecut=40 / intra_refresh=0 / rc_lookahead=60 / rc=2pass / mbtree=1 / bitrate=1150 / ratetol=1.0 / qcomp=0.60 / qpmin=0 / qpmax=69 / qpstep=4 / cplxblur=20.0 / qblur=0.5 / vbv_maxrate=31250 / vbv_bufsize=31250 / nal_hrd=none / filler=0 / ip_ratio=1.40 / aq=1:1.00
  202. Codec configuration box                  : avcC
  203.  
  204. Audio
  205. ID                                       : 2
  206. Format                                   : AAC LC
  207. Format/Info                              : Advanced Audio Codec Low Complexity
  208. Codec ID                                 : mp4a-40-2
  209. Duration                                 : 1 h 33 min
  210. Duration_LastFrame                       : -11 ms
  211. Bit rate mode                            : Constant
  212. Bit rate                                 : 128 kb/s
  213. Channel(s)                               : 2 channels
  214. Channel layout                           : L R
  215. Sampling rate                            : 48.0 kHz
  216. Frame rate                               : 46.875 FPS (1024 SPF)
  217. Compression mode                         : Lossy
  218. Stream size                              : 86.1 MiB (10%)
  219. Default                                  : Yes
  220. Alternate group                          : 1
  221.  
  222.  
  223.  
  224. ===================================
  225. Teeth.2007.1080p.WEBRip.x264.AAC5.1-YTS.mp4
  226. General
  227. Complete name                            : D:\Teeth.2007.1080p.WEBRip.x264.AAC5.1-YTS.mp4
  228. Format                                   : MPEG-4
  229. Format profile                           : Base Media
  230. Codec ID                                 : isom (isom/iso2/avc1/mp41)
  231. File size                                : 1.73 GiB
  232. Duration                                 : 1 h 33 min
  233. Overall bit rate                         : 2 637 kb/s
  234. Writing application                      : Lavf58.39.101
  235.  
  236. Video
  237. ID                                       : 1
  238. Format                                   : AVC
  239. Format/Info                              : Advanced Video Codec
  240. Format profile                           : [email protected]
  241. Format settings                          : CABAC / 4 Ref Frames
  242. Format settings, CABAC                   : Yes
  243. Format settings, Reference frames        : 4 frames
  244. Codec ID                                 : avc1
  245. Codec ID/Info                            : Advanced Video Coding
  246. Duration                                 : 1 h 33 min
  247. Bit rate                                 : 2 250 kb/s
  248. Width                                    : 1 920 pixels
  249. Height                                   : 1 072 pixels
  250. Display aspect ratio                     : 16:9
  251. Frame rate mode                          : Constant
  252. Frame rate                               : 23.976 (24000/1001) FPS
  253. Color space                              : YUV
  254. Chroma subsampling                       : 4:2:0
  255. Bit depth                                : 8 bits
  256. Scan type                                : Progressive
  257. Bits/(Pixel*Frame)                       : 0.046
  258. Stream size                              : 1.47 GiB (85%)
  259. Writing library                          : x264 core 159
  260. Encoding settings                        : cabac=1 / ref=4 / deblock=1:-1:-1 / analyse=0x3:0x133 / me=umh / subme=9 / psy=1 / psy_rd=1.00:0.15 / mixed_ref=1 / me_range=24 / chroma_me=1 / trellis=2 / 8x8dct=1 / cqm=0 / deadzone=21,11 / fast_pskip=0 / chroma_qp_offset=-3 / threads=18 / lookahead_threads=1 / sliced_threads=0 / nr=0 / decimate=1 / interlaced=0 / bluray_compat=0 / constrained_intra=0 / bframes=3 / b_pyramid=2 / b_adapt=2 / b_bias=0 / direct=3 / weightb=1 / open_gop=0 / weightp=2 / keyint=250 / keyint_min=23 / scenecut=40 / intra_refresh=0 / rc_lookahead=60 / rc=2pass / mbtree=1 / bitrate=2250 / ratetol=1.0 / qcomp=0.60 / qpmin=0 / qpmax=69 / qpstep=4 / cplxblur=20.0 / qblur=0.5 / vbv_maxrate=31250 / vbv_bufsize=31250 / nal_hrd=none / filler=0 / ip_ratio=1.40 / aq=1:1.00
  261. Codec configuration box                  : avcC
  262.  
  263. Audio
  264. ID                                       : 2
  265. Format                                   : AAC LC
  266. Format/Info                              : Advanced Audio Codec Low Complexity
  267. Codec ID                                 : mp4a-40-2
  268. Duration                                 : 1 h 33 min
  269. Duration_LastFrame                       : -11 ms
  270. Bit rate mode                            : Constant
  271. Bit rate                                 : 384 kb/s
  272. Channel(s)                               : 6 channels
  273. Channel layout                           : C L R Ls Rs LFE
  274. Sampling rate                            : 48.0 kHz
  275. Frame rate                               : 46.875 FPS (1024 SPF)
  276. Compression mode                         : Lossy
  277. Stream size                              : 258 MiB (15%)
  278. Default                                  : Yes
  279. Alternate group                          : 1
  280.  
  281.  
  282.