Posted : 4 Months ago

  1. Freshman.Year.2019.WEBRip.x264-ION10.mp4
  2. General
  3. Complete name                            : D:\Freshman.Year.2019.WEBRip.x264-ION10.mp4
  4. Format                                   : MPEG-4
  5. Format profile                           : Base Media
  6. Codec ID                                 : isom (isom/iso2/avc1/mp41)
  7. File size                                : 1 014 MiB
  8. Duration                                 : 1 h 44 min
  9. Overall bit rate                         : 1 362 kb/s
  10. Movie name                               : RARBG - Freshman.Year.2019.WEBRip.x264-ION10
  11. Encoded date                             : UTC 2020-06-30 16:00:21
  12. Tagged date                              : UTC 2020-06-30 16:00:21
  13. Writing application                      : Lavf58.20.100
  14. Comment                                  : RARBG - Freshman.Year.2019.WEBRip.x264-ION10
  15.  
  16. Video
  17. ID                                       : 1
  18. Format                                   : AVC
  19. Format/Info                              : Advanced Video Codec
  20. Format profile                           : [email protected]
  21. Format settings                          : CABAC / 5 Ref Frames
  22. Format settings, CABAC                   : Yes
  23. Format settings, Reference frames        : 5 frames
  24. Codec ID                                 : avc1
  25. Codec ID/Info                            : Advanced Video Coding
  26. Duration                                 : 1 h 44 min
  27. Bit rate                                 : 1 100 kb/s
  28. Width                                    : 720 pixels
  29. Height                                   : 304 pixels
  30. Display aspect ratio                     : 2.40:1
  31. Frame rate mode                          : Constant
  32. Frame rate                               : 23.976 (24000/1001) FPS
  33. Color space                              : YUV
  34. Chroma subsampling                       : 4:2:0
  35. Bit depth                                : 8 bits
  36. Scan type                                : Progressive
  37. Bits/(Pixel*Frame)                       : 0.210
  38. Stream size                              : 819 MiB (81%)
  39. Title                                    : RARBG - Freshman.Year.2019.WEBRip.x264-ION10
  40. Writing library                          : x264 core 152 r2851M ba24899
  41. Encoding settings                        : cabac=1 / ref=5 / deblock=1:-1:-1 / analyse=0x3:0x113 / me=umh / subme=9 / psy=1 / psy_rd=1.00:0.15 / mixed_ref=1 / me_range=16 / chroma_me=1 / trellis=2 / 8x8dct=1 / cqm=0 / deadzone=21,11 / fast_pskip=1 / chroma_qp_offset=-3 / threads=16 / lookahead_threads=1 / sliced_threads=0 / nr=0 / decimate=1 / interlaced=0 / bluray_compat=0 / constrained_intra=0 / bframes=3 / b_pyramid=2 / b_adapt=2 / b_bias=0 / direct=3 / weightb=1 / open_gop=0 / weightp=2 / keyint=250 / keyint_min=23 / scenecut=40 / intra_refresh=0 / rc_lookahead=50 / rc=2pass / mbtree=1 / bitrate=1100 / ratetol=1.0 / qcomp=0.60 / qpmin=0 / qpmax=69 / qpstep=4 / cplxblur=20.0 / qblur=0.5 / ip_ratio=1.40 / aq=1:1.00
  42. Encoded date                             : UTC 2020-06-30 16:00:21
  43. Tagged date                              : UTC 2020-06-30 16:00:21
  44. Codec configuration box                  : avcC
  45.  
  46. Audio
  47. ID                                       : 2
  48. Format                                   : AAC LC
  49. Format/Info                              : Advanced Audio Codec Low Complexity
  50. Codec ID                                 : mp4a-40-2
  51. Duration                                 : 1 h 44 min
  52. Duration_LastFrame                       : -11 ms
  53. Bit rate mode                            : Constant
  54. Bit rate                                 : 256 kb/s
  55. Channel(s)                               : 2 channels
  56. Channel layout                           : L R
  57. Sampling rate                            : 48.0 kHz
  58. Frame rate                               : 46.875 FPS (1024 SPF)
  59. Compression mode                         : Lossy
  60. Stream size                              : 191 MiB (19%)
  61. Title                                    : RARBG - Freshman.Year.2019.WEBRip.x264-ION10
  62. Language                                 : English
  63. Default                                  : Yes
  64. Alternate group                          : 1
  65. Encoded date                             : UTC 2020-06-30 16:00:21
  66. Tagged date                              : UTC 2020-06-30 16:00:21
  67.  
  68.  
  69.  
  70. ===================================
  71. Freshman.Year.2019.WEBRip.XviD.MP3-XVID.avi
  72. General
  73. Complete name                            : D:\Freshman.Year.2019.WEBRip.XviD.MP3-XVID.avi
  74. Format                                   : AVI
  75. Format/Info                              : Audio Video Interleave
  76. Format profile                           : OpenDML
  77. File size                                : 1.13 GiB
  78. Duration                                 : 1 h 44 min
  79. Overall bit rate                         : 1 550 kb/s
  80. Movie name                               : RARBG - Freshman.Year.2019.WEBRip.XviD.MP3-XVID
  81. Writing application                      : Lavf58.20.100
  82. Comment                                  : RARBG - Freshman.Year.2019.WEBRip.XviD.MP3-XVID
  83.  
  84. Video
  85. ID                                       : 0
  86. Format                                   : MPEG-4 Visual
  87. Format profile                           : [email protected]
  88. Format settings, BVOP                    : No
  89. Format settings, QPel                    : No
  90. Format settings, GMC                     : No warppoints
  91. Format settings, Matrix                  : Default (H.263)
  92. Codec ID                                 : XVID
  93. Codec ID/Hint                            : XviD
  94. Duration                                 : 1 h 44 min
  95. Bit rate                                 : 1 342 kb/s
  96. Width                                    : 720 pixels
  97. Height                                   : 304 pixels
  98. Display aspect ratio                     : 2.40:1
  99. Original display aspect ratio            : 2.40:1
  100. Frame rate                               : 23.976 (24000/1001) FPS
  101. Color space                              : YUV
  102. Chroma subsampling                       : 4:2:0
  103. Bit depth                                : 8 bits
  104. Scan type                                : Progressive
  105. Compression mode                         : Lossy
  106. Bits/(Pixel*Frame)                       : 0.256
  107. Stream size                              : 1 000 MiB (87%)
  108. Title                                    : RARBG - Freshman.Year.2019.WEBRip.XviD.MP3-XVID
  109. Writing library                          : Lavc58.35.100
  110.  
  111. Audio
  112. ID                                       : 1
  113. Format                                   : MPEG Audio
  114. Format version                           : Version 1
  115. Format profile                           : Layer 3
  116. Format settings                          : Joint stereo / MS Stereo
  117. Codec ID                                 : 55
  118. Codec ID/Hint                            : MP3
  119. Duration                                 : 1 h 44 min
  120. Bit rate mode                            : Constant
  121. Bit rate                                 : 192 kb/s
  122. Channel(s)                               : 2 channels
  123. Sampling rate                            : 48.0 kHz
  124. Compression mode                         : Lossy
  125. Stream size                              : 143 MiB (12%)
  126. Alignment                                : Aligned on interleaves
  127. Interleave, duration                     : 24  ms (0.58 video frame)
  128. Interleave, preload duration             : 24  ms
  129. Title                                    : RARBG - Freshman.Year.2019.WEBRip.XviD.MP3-XVID
  130. Writing library                          : LAME
  131.  
  132.  
  133.  
  134. ===================================
  135. Freshman.Year.2019.1080p.NF.WEB-DL.DDP2.0.x264-TEPES.mkv
  136. General
  137. Unique ID                                : 200366283767898461332836793244548153152 (0x96BD247FD29803E65F1A401F518D3F40)
  138. Complete name                            : D:\Freshman.Year.2019.1080p.NF.WEB-DL.DDP2.0.x264-TEPES.mkv
  139. Format                                   : Matroska
  140. Format version                           : Version 4
  141. File size                                : 2.37 GiB
  142. Duration                                 : 1 h 44 min
  143. Overall bit rate mode                    : Variable
  144. Overall bit rate                         : 3 253 kb/s
  145. Encoded date                             : UTC 2020-06-30 12:43:36
  146. Writing application                      : mkvmerge v47.0.0 ('Black Flag') 64-bit
  147. Writing library                          : libebml v1.3.10 + libmatroska v1.5.2
  148.  
  149. Video
  150. ID                                       : 1
  151. Format                                   : AVC
  152. Format/Info                              : Advanced Video Codec
  153. Format profile                           : [email protected]
  154. Format settings                          : CABAC / 3 Ref Frames
  155. Format settings, CABAC                   : Yes
  156. Format settings, Reference frames        : 3 frames
  157. Codec ID                                 : V_MPEG4/ISO/AVC
  158. Duration                                 : 1 h 44 min
  159. Bit rate mode                            : Variable
  160. Bit rate                                 : 3 160 kb/s
  161. Maximum bit rate                         : 4 740 kb/s
  162. Width                                    : 1 920 pixels
  163. Height                                   : 1 080 pixels
  164. Display aspect ratio                     : 16:9
  165. Frame rate mode                          : Constant
  166. Frame rate                               : 23.976 (24000/1001) FPS
  167. Color space                              : YUV
  168. Chroma subsampling                       : 4:2:0
  169. Bit depth                                : 8 bits
  170. Scan type                                : Progressive
  171. Bits/(Pixel*Frame)                       : 0.064
  172. Stream size                              : 2.27 GiB (96%)
  173. Writing library                          : x264 core 148 r2717 0d2410d
  174. Encoding settings                        : cabac=1 / ref=3 / deblock=1:0:0 / analyse=0x1:0x111 / me=umh / subme=10 / psy=1 / psy_rd=1.00:0.00 / mixed_ref=1 / me_range=24 / chroma_me=1 / trellis=2 / 8x8dct=0 / cqm=0 / deadzone=21,11 / fast_pskip=1 / chroma_qp_offset=-2 / threads=8 / lookahead_threads=1 / sliced_threads=0 / nr=0 / decimate=1 / interlaced=0 / bluray_compat=0 / stitchable=1 / constrained_intra=0 / bframes=2 / b_pyramid=0 / b_adapt=2 / b_bias=0 / direct=3 / weightb=1 / open_gop=0 / weightp=2 / keyint=250 / keyint_min=23 / scenecut=0 / intra_refresh=0 / rc_lookahead=48 / rc=2pass / mbtree=1 / bitrate=3160 / ratetol=1.0 / qcomp=0.50 / qpmin=6 / qpmax=51 / qpstep=4 / cplxblur=20.0 / qblur=0.5 / vbv_maxrate=4740 / vbv_bufsize=6320 / nal_hrd=vbr / filler=0 / ip_ratio=1.40 / aq=1:1.00
  175. Default                                  : Yes
  176. Forced                                   : No
  177.  
  178. Audio
  179. ID                                       : 2
  180. Format                                   : E-AC-3
  181. Format/Info                              : Enhanced AC-3
  182. Commercial name                          : Dolby Digital Plus
  183. Codec ID                                 : A_EAC3
  184. Duration                                 : 1 h 44 min
  185. Bit rate mode                            : Constant
  186. Bit rate                                 : 128 kb/s
  187. Channel(s)                               : 2 channels
  188. Channel layout                           : L R
  189. Sampling rate                            : 48.0 kHz
  190. Frame rate                               : 31.250 FPS (1536 SPF)
  191. Compression mode                         : Lossy
  192. Stream size                              : 95.3 MiB (4%)
  193. Language                                 : English
  194. Service kind                             : Complete Main
  195. Default                                  : Yes
  196. Forced                                   : No
  197.  
  198. Text
  199. ID                                       : 3
  200. Format                                   : UTF-8
  201. Codec ID                                 : S_TEXT/UTF8
  202. Codec ID/Info                            : UTF-8 Plain Text
  203. Duration                                 : 1 h 44 min
  204. Bit rate                                 : 76 b/s
  205. Count of elements                        : 2133
  206. Stream size                              : 58.4 KiB (0%)
  207. Title                                    : SDH
  208. Language                                 : English
  209. Default                                  : No
  210. Forced                                   : No
  211.  
  212.  
  213.