Posted : 1 Week ago

  1. Through.the.Looking.Glass.2006.WEBRip.XviD.MP3-XVID.avi
  2. General
  3. Complete name                            : D:\Through.the.Looking.Glass.2006.WEBRip.XviD.MP3-XVID.avi
  4. Format                                   : AVI
  5. Format/Info                              : Audio Video Interleave
  6. File size                                : 1 006 MiB
  7. Duration                                 : 1 h 22 min
  8. Overall bit rate                         : 1 702 kb/s
  9. Movie name                               : RARBG - Through.the.Looking.Glass.2006.WEBRip.XviD.MP3-XVID
  10. Writing application                      : Lavf58.20.100
  11. Comment                                  : RARBG - Through.the.Looking.Glass.2006.WEBRip.XviD.MP3-XVID
  12.  
  13. Video
  14. ID                                       : 0
  15. Format                                   : MPEG-4 Visual
  16. Format profile                           : [email protected]
  17. Format settings, BVOP                    : No
  18. Format settings, QPel                    : No
  19. Format settings, GMC                     : No warppoints
  20. Format settings, Matrix                  : Default (H.263)
  21. Codec ID                                 : XVID
  22. Codec ID/Hint                            : XviD
  23. Duration                                 : 1 h 22 min
  24. Bit rate                                 : 1 497 kb/s
  25. Width                                    : 720 pixels
  26. Height                                   : 396 pixels
  27. Display aspect ratio                     : 16:9
  28. Frame rate                               : 25.000 FPS
  29. Color space                              : YUV
  30. Chroma subsampling                       : 4:2:0
  31. Bit depth                                : 8 bits
  32. Scan type                                : Progressive
  33. Compression mode                         : Lossy
  34. Bits/(Pixel*Frame)                       : 0.210
  35. Stream size                              : 885 MiB (88%)
  36. Title                                    : RARBG - Through.the.Looking.Glass.2006.WEBRip.XviD.MP3-XVID
  37. Writing library                          : Lavc58.35.100
  38.  
  39. Audio
  40. ID                                       : 1
  41. Format                                   : MPEG Audio
  42. Format version                           : Version 1
  43. Format profile                           : Layer 3
  44. Format settings                          : Joint stereo / MS Stereo
  45. Codec ID                                 : 55
  46. Codec ID/Hint                            : MP3
  47. Duration                                 : 1 h 22 min
  48. Bit rate mode                            : Constant
  49. Bit rate                                 : 192 kb/s
  50. Channel(s)                               : 2 channels
  51. Sampling rate                            : 48.0 kHz
  52. Compression mode                         : Lossy
  53. Stream size                              : 113 MiB (11%)
  54. Alignment                                : Aligned on interleaves
  55. Interleave, duration                     : 24  ms (0.60 video frame)
  56. Interleave, preload duration             : 24  ms
  57. Title                                    : RARBG - Through.the.Looking.Glass.2006.WEBRip.XviD.MP3-XVID
  58. Writing library                          : LAME3.99.5
  59.  
  60.  
  61.